Zabójcze Umysły: Poza Granicami / Criminal Minds: Beyond Borders | Zaczarowany ołwek | Zadzwoń do Saula / Better Call Saul

Movies - Other

Acts of Violence 2017 1080p WEBRip 6CH AAC x264 - EiE

  • Download 5x Faster
  • Download torrent
  • Direct Download
  • Rate this torrent +  |  -

Torrent info

Name:Acts of Violence 2017 1080p WEBRip 6CH AAC x264 - EiE

Total Size: 1.50 GB

Magnet: Magnet Link

Seeds: 0

Leechers: 0

Stream: Watch Full Movie @ Movie4u

Last Updated: 2018-01-13 11:50:05 (Update Now)

Torrent added: 2018-01-13 11:50:05



VPN For Torrents

Torrent Files List


Read Me.txt (Size: 1.50 GB) (Files: 4)

 Read Me.txt

0.78 KB

 ECLiPSE.txt

14.04 KB

 Acts of Violence 2017.srt

74.35 KB

 Acts of Violence 2017.mp4

1.50 GB
 

tracker

leech seeds
 

Torrent description

Acts of Violence 2017 1080p WEBRip 6CH AAC x264 - EiE

http://www.imdb.com/title/tt6684714/


Screenshots:

http://lensdump.com/i/Y4vzP

http://lensdump.com/i/Y4nCZ

http://lensdump.com/i/Y4Lwm

http://lensdump.com/i/Y4Y1i


Video
ID : 1
Format : AVC
Format/Info : Advanced Video Codec
Format settings : CABAC / 4 Ref Frames
Format settings, CABAC : Yes
Format settings, RefFrames : 4 frames
Codec ID : avc1
Codec ID/Info : Advanced Video Coding
Duration : 1 h 26 min
Bit rate : 2 233 kb/s
Maximum bit rate : 9 898 kb/s
Width : 1 904 pixels
Height : 792 pixels
Display aspect ratio : 2.40:1
Frame rate mode : Constant
Frame rate : 23.976 FPS
Color space : YUV
Chroma subsampling : 4:2:0
Bit depth : 8 bits
Scan type : Progressive
Bits/(Pixel*Frame) : 0.062
Stream size : 1.35 GiB (90%)

Audio
ID : 2
Format : AAC
Format/Info : Advanced Audio Codec
Format profile : LC
Duration : 1 h 26 min
Bit rate mode : Variable
Bit rate : 238 kb/s
Maximum bit rate : 304 kb/s
Channel(s) : 6 channels
Channel positions : Front: L C R, Side: L R, LFE
Sampling rate : 48.0 kHz
Frame rate : 46.875 FPS
Compression mode : Lossy
Stream size : 148 MiB (10%)
Language : English

related torrents

Torrent name

health leech seeds Size
 


comments (0)

Main Menu